working in a coal mine judds download - tablesandthyme.co.za

Working in the Coal Mine by The Judds was written by Allen Toussaint and was first released by Lee Dorsey in 1966. The Judds released it on the album Rockin' with the Rhythm in 1985. It was covered by Slam Creepers', Bo Katzman Chor, Vocal Point [BYU], Alexis Korner and other artists.

Get Price

Working in the Coal Mine — The Judds Last.fm

2017-4-24  Naomi Judd was born Diana Ellen Judd on Jan. 11, 1946, in Ashland, Ky. Finding herself pregnant, she quickly got married but not to the father of her first child, daughter Christina Ciminella. Christina, born May 30, 1964, became known as Wynonna Judd

Get Price

Chords for judds, working in the coal mine

[Eb Bb Ebm Ab Bbm] Chords for judds, working in the coal mine with song key, BPM, capo transposer, play along with guitar, piano, ukulele mandolin.

Get Price

Working In The Coal Mine - song by The Judds Spotify

Listen to Working In The Coal Mine on Spotify. The Judds Song 1985.

Get Price

The Judds - Working In The Coal Mine (Karaoke)

2021-7-27  The Judds - Working In The Coal Mine (Karaoke) by AVA 1 month ago 7 Views. 04:01. The Judds - Love Is Alive (Karaoke) by ava3 5 years ago 113 Views. 03:38. The Judds - Cry Myself To Sleep (Karaoke) by ava3 5 years ago 111 Views. 04:30. The Judds - Young Love (Karaoke) by ava3 2 years ago 90 Views. 03:04.

Get Price

Song: Working in the Coal Mine written by Allen Toussaint ...

An adaptation is a musical work which uses most of the music or lyrics of another musical work. Working in the Coal Mine written by Allen Toussaint English April 1966. Jogger i spinaten written by Bamse Danish 1993. Jobber neri kjeller'n written by Eldar Vågan Norwegian 1985. Trabajando en las minas de carbón written by unknown author (s ...

Get Price

(Country) [CD] The Judds - 4 albums - 1984-1990, FLAC ...

Filename J:\Ready To Upload\The Judds - Rockin' With The Rhythm (1985) [FLAC]\03 - Working In The Coal Mine.wav Pre-gap length 0:00:01.50 Peak level 91.5 % Extraction speed 5.8 X Track quality 100.0 % Test CRC DA47D509 Copy CRC DA47D509 Accurately ripped (confidence 1) [21B00978] (AR v1) Copy OK Track 4

Get Price

S3E5: Chapter 21. Near, - The Kominsky Method

2021-5-28  The Judds. Correct? Sandy's filming process. Download on Amazon - Working In the Coal Mine Play on Apple Music - Working In the Coal Mine Download on iTunes - Working In the Coal Mine Play on Spotify - Working In the Coal Mine Play on YouTube - Working In the Coal Mine. You Always Hurt the One You Love.

Get Price

The Judds - Working In The Coal Mine Lyrics AZLyrics

The Judds "Working In The Coal Mine": Workin' in the coal mine Goin' on down, down Workin' in a coal mine Oops, about to slip down Workin'...

Get Price

The Judds – Working in The Coal Mine Lyrics Genius Lyrics

2021-8-13  Type out all lyrics, even if it’s a chorus that’s repeated throughout the song The Section Header button breaks up song sections. Highlight the text then click the link Use Bold and Italics ...

Get Price

Cover versions of Working in the Coal Mine by The Judds ...

Working in the Coal Mine by The Judds was written by Allen Toussaint and was first released by Lee Dorsey in 1966. The Judds released it on the album Rockin' with the Rhythm in 1985. It was covered by Slam Creepers', Bo Katzman Chor, Vocal Point

Get Price

Chords for judds, working in the coal mine

[Eb Bb Ebm Ab Bbm] Chords for judds, working in the coal mine with song key, BPM, capo transposer, play along with guitar, piano, ukulele mandolin.

Get Price

Working In The Coal Mine Lyrics Chords By The Judds

2021-8-3  Workin? in the coal mine Goin? on down, down Workin? in a coal mine Oops, about to slip down Workin? in a coal mine Goin? on down, down Workin? in a coal mine

Get Price

The Judds - Working In The Coal Mine - Karaoke Cloud

"Working In The Coal Mine" In the Style Of Judds, The

Get Price

The Judds - Working In the Coal Mine Lyrics Musixmatch

2017-7-25  Type song title, artist or lyrics. Top lyrics Community Contribute Business. Sign in Sign up

Get Price

Song: Working in the Coal Mine written by Allen Toussaint ...

An adaptation is a musical work which uses most of the music or lyrics of another musical work. Working in the Coal Mine written by Allen Toussaint English April 1966. Jogger i spinaten written by Bamse Danish 1993. Jobber neri kjeller'n written by Eldar Vågan Norwegian 1985. Trabajando en las minas de carbón written by unknown author (s ...

Get Price

S3E5: Chapter 21. Near, - The Kominsky Method

2021-5-28  The Judds. Correct? Sandy's filming process. Download on Amazon - Working In the Coal Mine Play on Apple Music - Working In the Coal Mine Download on iTunes - Working In the Coal Mine Play on Spotify - Working In the Coal Mine Play on YouTube - Working In the Coal Mine

Get Price

Working In The Coal Mine - Judds - LETRAS.MUS.BR

Working in the coal mine going on down down Working in a coal mine oops about to slip down Working in a coal mine going on down down Working in a coal mine oops about to slip down. Five o'clock in the morning I'm already up and gone Lord I'm so tired how long can this go on. Working in the coal mine... Cause I make a little money hauling coal by the tons When Saturday rolls around I'm too ...

Get Price

(Country) [CD] The Judds - 4 albums - 1984-1990, FLAC ...

Filename J:\Ready To Upload\The Judds - Rockin' With The Rhythm (1985) [FLAC]\03 - Working In The Coal Mine.wav Pre-gap length 0:00:01.50 Peak level 91.5 % Extraction speed 5.8 X Track quality 100.0 % Test CRC DA47D509 Copy CRC DA47D509 Accurately ripped (confidence 1) [21B00978] (AR v1) Copy OK Track 4

Get Price

The Judds - The Essential Judds Mp3 Album Download

About File Formats. MP3 is a digital audio format without digital rights management (DRM) technology. Because our MP3s have no DRM, you can play it on any device that supports MP3, even on your iPod!

Get Price

The Judds - Working In The Coal Mine Chords - Chordify

Download the chords as MIDI file for audio and score editing. midi Print this page or download a PDF chord sheet print Loading the chords for 'The Judds - Working In The Coal Mine'.

Get Price

Working In The Coal Mine Lyrics Chords By The Judds

2021-8-3  Workin? in the coal mine Goin? on down, down Workin? in a coal mine Oops, about to slip down Workin? in a coal mine Goin? on down, down Workin? in a coal mine

Get Price

The Judds - Working In The Coal Mine - Karaoke Cloud

"Working In The Coal Mine" In the Style Of Judds, The

Get Price

Song: Working in the Coal Mine written by Allen Toussaint ...

An adaptation is a musical work which uses most of the music or lyrics of another musical work. Working in the Coal Mine written by Allen Toussaint English April 1966. Jogger i spinaten written by Bamse Danish 1993. Jobber neri kjeller'n written by Eldar Vågan Norwegian 1985. Trabajando en las minas de carbón written by unknown author (s ...

Get Price

The Judds - Working In The Coal Mine Letra LetsSingIt

LetsSingIt é um banco de dados de letras de crowdsourcing, criado por e mantido por pessoas como você! Ajude a contribuir e ganhe pontos para aumentar seu nível VIP e obter benefícios extras.

Get Price

JUDDS - WORKING IN THE COAL MINE LYRICS

Judds - Working In The Coal Mine Lyrics. Judds The Judds Collection (1983 - 1990) Working In The Coal Mine Words and Music by Allen Toussaint Workin' in the coal mine Goin' on dow

Get Price

Working In The Coal Mine - Judds - LETRAS.MUS.BR

Working in the coal mine going on down down Working in a coal mine oops about to slip down Working in a coal mine going on down down Working in a coal mine oops about to slip down. Five o'clock in the morning I'm already up and gone Lord I'm so tired how long can this go on. Working in the coal mine... Cause I make a little money hauling coal by the tons When Saturday rolls around I'm too ...

Get Price

The Judds Music Tunefind

2019-9-25  Music by The Judds has been featured in the The Kominsky Method soundtrack. Some of The Judds's most popular songs include Working In the Coal Mine, which was featured in the The Kominsky Method soundtruck, and Why Not Me, featured in the Country Music soundtruck.

Get Price

(Country) [CD] The Judds - 4 albums - 1984-1990, FLAC ...

Filename J:\Ready To Upload\The Judds - Rockin' With The Rhythm (1985) [FLAC]\03 - Working In The Coal Mine.wav Pre-gap length 0:00:01.50 Peak level 91.5 % Extraction speed 5.8 X Track quality 100.0 % Test CRC DA47D509 Copy CRC DA47D509 Accurately ripped (confidence 1) [21B00978] (AR v1) Copy OK Track 4

Get Price

The Judds - The Essential Judds Mp3 Album Download

About File Formats. MP3 is a digital audio format without digital rights management (DRM) technology. Because our MP3s have no DRM, you can play it on any device that supports MP3, even on your iPod!

Get Price